<?xml version="1.0" standalone="no"?>
<!DOCTYPE svg PUBLIC "-//W3C//DTD SVG 1.1//EN" "http://www.w3.org/Graphics/SVG/1.1/DTD/svg11.dtd" >
<svg xmlns="http://www.w3.org/2000/svg">
<metadata>Generated by IcoMoon</metadata>
<defs>
<font id="icomoon" horiz-adv-x="1024">
<font-face units-per-em="1024" ascent="960" descent="-64" />
<missing-glyph horiz-adv-x="1024" />
<glyph unicode="&#x20;" horiz-adv-x="512" d="" />
<glyph unicode="&#xe900;" glyph-name="gain-airdrop" d="M267.5 235.938h299.938v-299.938h-299.938zM497.742 417.446l52.72 95.882-5.22 5.258c-12.796 12.914-27.18 23.664-42.702 32.078l-85.072-154.71-85.71 155.866c-16.814-8.929-31.255-19.637-43.878-32.174l0.010 0.010-4.468-4.438 53.54-97.36-251.54 153.212c-25.016-4.266-48.726-13.648-69.82-27.72l401.828-244.74 399.328 242.070c-19.839 13.481-43.324 23.253-68.638 27.724l-1.082 0.158zM2 605.118c34.75 18.68 73.766 28.592 114.258 28.592 43.882 0 85.946-11.648 122.75-33.406 4.36 100.65 19.648 193.978 44.14 267.478 11.148 33.436 23.172 59.86 35.532 80.624-163.556-39.374-290.414-174.992-316.68-343.286zM417.594 960c-18.672-0.008-50.18-29.126-77.532-111.196-22.42-67.258-36.57-153.116-40.92-246.398 35.404 19.61 75.374 30.062 116.89 30.062 42.836 0 83.92-11.1 120.094-31.866-4.26 93.984-18.44 180.516-41 248.202-27.362 82.070-58.862 111.188-77.532 111.196zM516.72 948.032c12.28-20.704 24.226-47.008 35.312-80.26 24.554-73.654 39.86-167.248 44.18-268.162 36.070 20.594 77.006 31.608 119.592 31.608 41.26 0 80.922-10.258 116.11-29.57-12.836 88.22-53.336 169.734-117.274 234.204-55.304 55.758-123.5 94.062-197.92 112.18z" />
<glyph unicode="&#xe901;" glyph-name="gain-ambassador" d="M1008-48v96c-0.132 40.185-29.92 73.374-68.617 78.831l-0.423 0.049c8.158 11.514 13.040 25.849 13.040 41.325 0 39.765-32.235 72-72 72s-72-32.235-72-72c0-15.476 4.882-29.811 13.191-41.549l-0.151 0.225c-21.83-3.083-40.498-14.63-52.892-31.154l-0.148-0.206c-12.542 16.73-31.21 28.277-52.617 31.311l-0.423 0.049c8.158 11.514 13.040 25.849 13.040 41.325 0 39.765-32.235 72-72 72s-72-32.235-72-72c0-15.476 4.882-29.811 13.191-41.549l-0.151 0.225c-39.12-5.506-68.908-38.695-69.040-78.866v-96.014h32v96c0.027 26.499 21.501 47.973 47.997 48h96.003c26.499-0.027 47.973-21.501 48-47.997v-96.003h32v96c0.027 26.499 21.501 47.973 47.997 48h96.003c26.499-0.027 47.973-21.501 48-47.997v-96.003zM656 208c22.091 0 40-17.909 40-40s-17.909-40-40-40c-22.091 0-40 17.909-40 40v0c0.027 22.080 17.92 39.973 39.997 40h0.003zM880 208c22.091 0 40-17.909 40-40s-17.909-40-40-40c-22.091 0-40 17.909-40 40v0c0.027 22.080 17.92 39.973 39.997 40h0.003zM800 48h32v-96h-32zM928 48h32v-96h-32zM576 48h32v-96h-32zM704 48h32v-96h-32zM80 464v-163.44l-51.904-13.44c-6.942-1.849-11.973-8.080-11.973-15.485 0-1.434 0.189-2.824 0.543-4.147l-0.025 0.112 72.272-278.768c1.838-6.949 8.065-11.99 15.471-12h0.001c0.005 0 0.010 0 0.016 0 1.428 0 2.811 0.193 4.125 0.554l-0.109-0.026 371.712 96.368c4.496 1.189 8.139 4.173 10.182 8.119l0.042 0.089 87.76 171.52c1.107 2.119 1.757 4.629 1.757 7.29 0 5.512-2.787 10.373-7.029 13.25l-0.056 0.036-160.048 107.248c-2.506 1.691-5.595 2.7-8.918 2.7-1.425 0-2.806-0.185-4.122-0.533l0.112 0.025-63.808-16.528v67.936l67.136 13.424c5.043 1.025 9.154 4.314 11.286 8.736l0.042 0.096 48 101.328-1.648 0.784 28.88 7.744c6.883 1.89 11.856 8.091 11.856 15.454 0 2.843-0.741 5.513-2.042 7.826l0.042-0.080-24 43.248-3.088 47.856 92.608-5.584c5.033-8.6 14.226-14.285 24.746-14.285 2.672 0 5.258 0.367 7.711 1.053l-0.201-0.048 37.28 9.968c12.417 3.403 21.39 14.587 21.39 27.867 0 2.665-0.361 5.245-1.038 7.695l0.048-0.203-53.28 198.832c-3.439 12.412-14.635 21.372-27.924 21.372-2.644 0-5.206-0.355-7.639-1.019l0.203 0.047-37.248-10c-12.341-3.303-21.28-14.385-21.28-27.555 0-0.027 0-0.054 0-0.081v0.004l-99.792-65.92c-0.776 0.854-1.63 1.612-2.559 2.271l-0.049 0.033c-2.296 1.348-5.058 2.144-8.005 2.144-1.472 0-2.897-0.199-4.251-0.57l0.112 0.026-49.696-13.328c-6.884-1.889-11.858-8.091-11.858-15.455 0-1.474 0.199-2.902 0.573-4.258l-0.026 0.112 1.632-6.112-18.624-4.976c-13.757-3.813-23.687-16.222-23.687-30.95 0-2.933 0.394-5.775 1.132-8.474l-0.052 0.225 11.696-43.648c3.735-13.774 16.125-23.738 30.841-23.738 2.974 0 5.852 0.407 8.583 1.168l-0.224-0.053 18.592 4.992 3.408-12.688c1.889-6.878 8.083-11.849 15.439-11.856h0.001c1.479 0 2.912 0.199 4.274 0.57l-0.114-0.026 9.392 2.512 7.952-29.68-0.416 0.24-59.392-103.92h-55.136c10.184 13.141 16.349 29.844 16.416 47.984v0.016c0 44.183-35.817 80-80 80s-80-35.817-80-80v0c0.067-18.156 6.232-34.859 16.551-48.181l-0.135 0.181h-16.416c-35.332-0.036-63.964-28.668-64-63.997v-0.003zM335.296 708.784l-11.696 43.648 18.592 4.992 11.712-43.664zM400.896 350.704l142.256-95.344-78.016-152.448-349.28-90.56-64.224 247.808zM515.536 856.144l39.584-147.76-115.232 6.96-20.688 77.136zM571.648 895.296l51.648-192.784-31.232-8.352-51.648 192.768zM367.328 787.264l18.8 5.056 25.024-93.36-18.8-5.056zM434.88 672.192c2.279 0.629 4.26 1.682 5.946 3.077l-0.026-0.021 3.040-47.456c0.174-2.491 0.888-4.781 2.026-6.801l-0.042 0.081 15.808-28.464-14.464-3.872-21.696 80.928zM352 496c5.915 0.002 11.079 3.213 13.847 7.987l0.041 0.077 48.224 84.384 6.288-23.44c0.95-3.49 2.96-6.419 5.659-8.501l0.037-0.027-37.12-78.368-72.112-14.432c-7.384-1.515-12.859-7.957-12.864-15.679v-89.361l-144-37.328v126.688h-32v-134.992l-16-4.16v155.152c0.018 17.666 14.334 31.982 31.998 32h0.002zM176 576c0 26.51 21.49 48 48 48s48-21.49 48-48c0-26.51-21.49-48-48-48v0c-26.499 0.027-47.973 21.501-48 47.997v0.003zM667.264 831.44l96.048 32.080 10.128-30.352-96.032-32.080zM684.896 768l91.040 5.92 2.080-31.936-91.040-5.92zM640.288 895.2l71.44 49.808 18.304-26.24-71.44-49.84zM440 180.592c4.267 0.003 8.401 0.57 12.332 1.628l-0.332-0.076h0.016c20.789 5.554 35.851 24.218 35.851 46.4 0 26.483-21.469 47.952-47.952 47.952s-47.952-21.469-47.952-47.952c0-26.483 21.469-47.952 47.952-47.952 0.030 0 0.060 0 0.090 0h-0.005zM426.176 236.72c2.147 3.61 5.586 6.262 9.665 7.335l0.111 0.025c1.205 0.325 2.589 0.512 4.016 0.512 8.837 0 16-7.164 16-16 0-7.409-5.036-13.642-11.872-15.463l-0.112-0.025c-1.209-0.327-2.597-0.515-4.028-0.515-8.837 0-16 7.163-16 16 0 2.999 0.825 5.805 2.261 8.204l-0.040-0.073zM169.952 158.592l-11.856-46.144c-0.32-1.196-0.504-2.569-0.504-3.984 0-8.837 7.163-16 16-16 2.337 0 4.556 0.501 6.557 1.401l-0.101-0.041 46.288 20.416 42.704-24.432c2.28-1.326 5.018-2.109 7.939-2.109 8.837 0 16 7.163 16 16 0 0.574-0.030 1.14-0.089 1.698l0.006-0.070-4.816 47.152 38.208 31.68c3.548 2.956 5.79 7.375 5.79 12.319 0 7.8-5.582 14.297-12.969 15.713l-0.1 0.016-48.8 9.152-18.672 43.552c-2.373 5.407-7.494 9.206-13.548 9.645l-0.052 0.003c-0.288 0.018-0.625 0.029-0.964 0.029-5.816 0-10.919-3.051-13.797-7.641l-0.040-0.068-25.472-42.112-50.352-4.64c-8.184-0.774-14.536-7.612-14.536-15.933 0-4.27 1.673-8.149 4.398-11.018l-0.007 0.007zM208.656 193.632c5.195 0.504 9.615 3.425 12.168 7.61l0.040 0.070 13.536 22.352 9.76-22.768c2.115-4.858 6.444-8.404 11.677-9.392l0.099-0.016 23.68-4.464-18.56-15.36c-3.534-2.956-5.766-7.366-5.766-12.299 0-0.582 0.031-1.157 0.092-1.724l-0.006 0.070 2.528-24.672-22.704 12.992c-2.283 1.326-5.023 2.108-7.947 2.108-2.335 0-4.554-0.499-6.555-1.397l0.101 0.041-23.52-10.384 5.856 22.8c0.321 1.196 0.505 2.569 0.505 3.986 0 4.268-1.673 8.146-4.399 11.013l0.006-0.007-16.192 17.088zM864 423.968c0.034 0.708 0.053 1.537 0.053 2.371 0 25.517-17.869 46.861-41.776 52.202l-0.356 0.067c-3.857 0.86-8.288 1.353-12.833 1.353-15.817 0-30.241-5.966-41.143-15.77l0.056 0.050c-10.827 9.762-25.236 15.734-41.041 15.734-4.562 0-9.008-0.498-13.287-1.442l0.407 0.075c-24.264-5.407-42.133-26.751-42.133-52.269 0-0.834 0.019-1.664 0.057-2.488l-0.004 0.117c0-53.792 66.592-103.296 87.008-117.184 2.517-1.738 5.633-2.776 8.992-2.776s6.475 1.038 9.046 2.811l-0.054-0.035c20.432 13.888 87.008 63.392 87.008 117.184zM768 339.616c-31.296 23.088-64 56.72-64 84.352-0.092 0.743-0.144 1.604-0.144 2.477 0 10.301 7.303 18.897 17.015 20.892l0.138 0.024c1.763 0.407 3.788 0.64 5.868 0.64 0.018 0 0.037 0 0.055 0h-0.003c0.058 0 0.126 0.001 0.195 0.001 11.605 0 21.622-6.796 26.29-16.624l0.075-0.176c2.605-5.515 8.121-9.262 14.512-9.262s11.907 3.747 14.471 9.165l0.041 0.097c4.771 10.007 14.805 16.798 26.425 16.798 2.15 0 4.246-0.233 6.264-0.674l-0.193 0.035c9.841-2.024 17.137-10.616 17.137-20.912 0-0.874-0.053-1.736-0.155-2.582l0.010 0.102c0-27.632-32.704-61.264-64-84.352zM752 288h32v-32h-32zM752 224h32v-32h-32z" />
<glyph unicode="&#xe902;" glyph-name="gain-blockchain" d="M192 704c0 35.346 28.654 64 64 64h128c35.346 0 64-28.654 64-64v-42.667h128v42.667c0 35.346 28.655 64 64 64h128c35.345 0 64-28.654 64-64v-128c0-35.346-28.655-64-64-64h-42.667v-128h42.667c35.345 0 64-28.655 64-64v-128c0-35.345-28.655-64-64-64h-128c-35.345 0-64 28.655-64 64v42.667h-128v-42.667c0-35.345-28.654-64-64-64h-128c-35.346 0-64 28.655-64 64v128c0 35.345 28.654 64 64 64h42.667v128h-42.667c-35.346 0-64 28.654-64 64v128zM682.667 512h-42.667c-35.345 0-64 28.654-64 64v42.667h-128v-42.667c0-35.346-28.654-64-64-64h-42.667v-128h42.667c35.346 0 64-28.655 64-64v-42.667h128v42.667c0 35.345 28.655 64 64 64h42.667v128zM256 725.333c-11.782 0-21.333-9.551-21.333-21.333v-128c0-11.782 9.551-21.333 21.333-21.333h128c11.782 0 21.333 9.551 21.333 21.333v128c0 11.782-9.551 21.333-21.333 21.333h-128zM234.667 320c0 11.78 9.551 21.333 21.333 21.333h128c11.782 0 21.333-9.553 21.333-21.333v-128c0-11.78-9.551-21.333-21.333-21.333h-128c-11.782 0-21.333 9.553-21.333 21.333v128zM618.667 320c0 11.78 9.553 21.333 21.333 21.333h128c11.78 0 21.333-9.553 21.333-21.333v-128c0-11.78-9.553-21.333-21.333-21.333h-128c-11.78 0-21.333 9.553-21.333 21.333v128zM618.667 704c0 11.782 9.553 21.333 21.333 21.333h128c11.78 0 21.333-9.551 21.333-21.333v-128c0-11.782-9.553-21.333-21.333-21.333h-128c-11.78 0-21.333 9.551-21.333 21.333v128z" />
<glyph unicode="&#xe903;" glyph-name="gain-btc" d="M826.241 450.414c-32.963 24.826-79.919 34.755-79.919 34.755s39.736 23.038 55.974 46.053c16.256 23.024 24.379 58.696 25.738 77.205 1.35 18.518 4.515 96.161-55.987 140.85-46.798 34.579-100.428 48.306-172.445 52.772v156.695h-96.613v-154.844c-21.557 0-46.748 0-73.588 0v154.844h-96.604v-154.844c-98.622 0-190.064 0-190.064 0v-100.329c0 0 40.63 0 55.865 0 15.231 0 42.319-1.693 53.829-14.576 11.514-12.86 13.546-19.638 13.546-44.68 0-25.052 0.005-390.293 0.005-399.775 0-9.478-1.806-21.209-9.939-28.89-8.119-7.681-16.242-9.473-35.663-9.473-19.416 0-57.78 0-57.78 0l-19.863-116.038c0 0 94.454 0 190.064 0v-154.406h96.608v154.406c29.685 0 55.531 0 73.588 0v-154.406h96.613v156.952c24.975 1.458 48.261 3.35 61.844 5.13 27.544 3.603 89.839 10.828 148.089 51.463 58.231 40.639 71.312 104.298 72.672 168.399 1.373 64.106-23.038 107.906-55.969 132.736zM429.401 694.645c0 0 30.696 2.705 60.945 2.262 30.258-0.447 56.881-1.355 96.622-13.546 39.722-12.196 63.18-41.994 64.101-77.21 0.899-35.216-14.467-58.683-41.542-73.584-27.084-14.896-64.535-23.024-99.764-24.365-35.207-1.359-80.361 0-80.361 0v186.443zM645.646 232.81c-22.121-12.196-66.368-23.029-109.247-26.181-42.892-3.165-106.998-1.811-106.998-1.811v207.228c0 0 61.401 3.152 109.26 0 47.85-3.174 88.029-15.353 106.077-24.397 18.057-9.022 49.67-28.881 49.67-76.293 0-47.394-26.655-66.359-48.762-78.546z" />
<glyph unicode="&#xe904;" glyph-name="gain-discord" d="M866.86 773.556c-60.192 28.41-130.129 50.868-203.328 63.895l-5.104 0.753c-0.174 0.034-0.374 0.053-0.579 0.053-1.187 0-2.222-0.654-2.763-1.621l-0.008-0.016c-9.002-16.010-18.972-36.894-25.954-53.31-78.706 11.784-157.010 11.784-234.102 0-6.984 16.78-17.316 37.3-26.358 53.31-0.581 0.979-1.633 1.625-2.835 1.625-0.182 0-0.36-0.015-0.534-0.043l0.019 0.003c-73.136-12.596-143.124-34.66-208.432-64.648-0.577-0.249-1.046-0.655-1.365-1.165l-0.007-0.013c-132.752-198.33-169.12-391.786-151.28-582.842 0.080-0.934 0.606-1.828 1.332-2.396 87.586-64.322 172.43-103.37 255.696-129.254 0.284-0.088 0.61-0.139 0.948-0.139 1.076 0 2.033 0.513 2.638 1.309l0.006 0.008c19.696 26.898 37.254 55.26 52.308 85.086 0.888 1.746 0.040 3.818-1.776 4.51-27.85 10.564-54.368 23.446-79.878 38.072-2.018 1.178-2.18 4.064-0.322 5.446 6.37 4.763 11.534 8.839 16.602 13.026l-0.738-0.592c0.543 0.451 1.248 0.724 2.016 0.724 0.469 0 0.913-0.102 1.313-0.284l-0.020 0.008c167.584-76.514 349.014-76.514 514.62 0 0.396 0.193 0.862 0.305 1.354 0.305 0.76 0 1.457-0.268 2.001-0.716l-0.006 0.004c4.399-3.665 9.576-7.754 14.852-11.718l1.052-0.756c1.856-1.382 1.734-4.268-0.282-5.446-25.51-14.912-52.028-27.508-79.918-38.032-1.238-0.483-2.099-1.666-2.099-3.050 0-0.548 0.135-1.064 0.373-1.518l-0.009 0.018c15.378-29.784 32.936-58.146 52.268-85.046 0.808-1.138 2.26-1.626 3.592-1.218 83.67 25.882 168.514 64.932 256.1 129.254 0.742 0.547 1.243 1.385 1.331 2.343l0.001 0.013c21.352 220.882-35.762 412.752-151.4 582.842-0.287 0.55-0.749 0.976-1.311 1.21l-0.017 0.006zM342.188 305.87c-50.454 0-92.028 46.32-92.028 103.208s40.766 103.208 92.028 103.208c51.662 0 92.834-46.728 92.026-103.208 0-56.888-40.768-103.208-92.026-103.208zM682.442 305.87c-50.452 0-92.026 46.32-92.026 103.208s40.766 103.208 92.026 103.208c51.664 0 92.834-46.728 92.028-103.208 0-56.888-40.362-103.208-92.028-103.208z" />
<glyph unicode="&#xe905;" glyph-name="gain-dollar" d="M512 917.333c23.565 0 42.667-19.103 42.667-42.667v-42.667h42.667c50.133 0 90.569-12.656 122.334-33.833 31.497-20.999 51.964-48.692 65.161-75.087 13.116-26.228 19.46-51.939 22.592-70.733 1.583-9.498 2.389-17.507 2.803-23.308 0.341-4.728 0.439-7.477 0.444-10.33 0-23.27-19.379-42.71-42.667-42.71-23.492 0-42.551 19.001-42.667 42.468-0.175 6.65-0.994 13.296-2.086 19.851-2.202 13.206-6.524 30.161-14.741 46.6-8.137 16.272-19.669 31.246-36.173 42.247-16.235 10.823-39.799 19.501-74.999 19.501h-42.667v-256h42.667c69.794 0 125.491-25.758 163.452-67.17 37.333-40.725 55.215-94.042 55.215-146.163s-17.882-105.438-55.215-146.163c-37.961-41.412-93.658-67.17-163.452-67.17h-42.667v-42.667c0-23.565-19.102-42.667-42.667-42.667s-42.667 19.102-42.667 42.667v42.667h-42.667c-50.132 0-90.569 12.655-122.334 33.83-31.498 21.001-51.964 48.695-65.162 75.089-13.114 26.227-19.458 51.938-22.59 70.733-1.583 9.498-2.391 17.506-2.806 23.309-0.339 4.753-0.44 7.505-0.442 10.372 0 23.565 19.102 42.667 42.667 42.667 23.492 0 42.554-19.004 42.666-42.466 0.176-6.652 0.994-13.299 2.086-19.853 2.201-13.205 6.523-30.161 14.743-46.601 8.136-16.273 19.67-31.245 36.172-42.244 16.235-10.825 39.799-19.503 74.999-19.503h42.667v256h-42.667c-56.909 0-104.446 17.126-140.637 45.897-8.194 6.515-15.807 13.628-22.815 21.274-37.332 40.725-55.215 94.044-55.215 146.163s17.883 105.439 55.215 146.164c37.961 41.412 93.658 67.169 163.452 67.169h42.667v42.667c0 23.564 19.102 42.667 42.667 42.667zM469.333 746.667h-42.667c-47.539 0-79.842-16.909-100.548-39.497-21.335-23.275-32.785-55.289-32.785-88.503s11.45-65.228 32.785-88.503c20.706-22.588 53.009-39.497 100.548-39.497h42.667v256zM554.667 405.333v-256h42.667c47.539 0 79.842 16.909 100.548 39.497 21.333 23.275 32.785 55.292 32.785 88.503s-11.452 65.229-32.785 88.503c-20.706 22.588-53.009 39.497-100.548 39.497h-42.667z" />
<glyph unicode="&#xe906;" glyph-name="gain-down" d="M276.053 555.947c5.789 5.782 13.784 9.359 22.613 9.359s16.824-3.576 22.614-9.359v0l190.72-190.72 190.72 190.72c5.699 5.321 13.376 8.588 21.815 8.588 17.673 0 32-14.327 32-32 0-8.44-3.267-16.116-8.606-21.834l0.017 0.019-213.333-213.333c-5.789-5.782-13.784-9.359-22.613-9.359s-16.824 3.576-22.614 9.359v0l-213.333 213.333c-5.782 5.789-9.359 13.784-9.359 22.613s3.576 16.824 9.359 22.614v0z" />
<glyph unicode="&#xe907;" glyph-name="gain-download" d="M240 320c0 17.673-14.327 32-32 32s-32-14.327-32-32h64zM208 277.333v0zM822.4 320c0 17.673-14.327 32-32 32s-32-14.327-32-32h64zM473.967 297.015c-10.867-13.935-8.384-34.044 5.551-44.915 13.935-10.867 34.044-8.384 44.915 5.551l-50.466 39.364zM690.833 470.985c10.867 13.935 8.384 34.044-5.551 44.915-13.935 10.867-34.044 8.384-44.915-5.551l50.466-39.364zM473.967 257.651c10.871-13.935 30.98-16.418 44.915-5.551 13.935 10.871 16.418 30.98 5.551 44.915l-50.466-39.364zM358.032 510.349c-10.87 13.935-30.978 16.418-44.913 5.551-13.935-10.871-16.421-30.98-5.551-44.915l50.464 39.364zM467.2 277.333c0-17.673 14.327-32 32-32s32 14.327 32 32h-64zM531.2 746.667c0 17.673-14.327 32-32 32s-32-14.327-32-32h64zM176 320v-42.667h64v42.667h-64zM176 277.333c0-87.599 69.443-160 156.8-160v64c-50.493 0-92.8 42.21-92.8 96h-64zM332.8 117.333h332.8v64h-332.8v-64zM665.6 117.333c87.356 0 156.8 72.401 156.8 160h-64c0-53.79-42.308-96-92.8-96v-64zM822.4 277.333v42.667h-64v-42.667h64zM524.433 257.651l166.4 213.333-50.466 39.364-166.4-213.333 50.466-39.364zM524.433 297.015l-166.401 213.333-50.464-39.364 166.399-213.333 50.466 39.364zM531.2 277.333v469.333h-64v-469.333h64z" />
<glyph unicode="&#xe908;" glyph-name="gain-eth" d="M508.227 251.074v316.185l-308.834-135.283zM508.227 588.997v371.256l-298.882-502.172zM528.136 960.406v-371.409l303.081-132.768zM528.136 567.26v-316.194l309.051 180.821zM508.227-66.84v254.315l-306.757 179.602zM528.136-66.84l306.757 433.917-306.757-179.602z" />
<glyph unicode="&#xe909;" glyph-name="gain-instagram" d="M1022.9 659c-2.4 54.4-11.196 91.796-23.8 124.204-13 34.398-33 65.194-59.2 90.796-25.604 26-56.604 46.204-90.604 59-32.592 12.6-69.796 21.4-124.194 23.796-54.806 2.604-72.204 3.204-211.204 3.204s-156.398-0.6-211-3c-54.398-2.4-91.796-11.204-124.194-23.796-34.408-13-65.204-33-90.806-59.204-26-25.6-46.194-56.6-59-90.6-12.6-32.604-21.398-69.8-23.796-124.196-2.602-54.806-3.204-72.204-3.204-211.204s0.602-156.4 3-211c2.4-54.4 11.204-91.796 23.806-124.204 13-34.398 33.194-65.194 59.194-90.796 25.602-26 56.602-46.204 90.602-59 32.6-12.6 69.796-21.4 124.204-23.796 54.592-2.408 72-3 211-3s156.398 0.592 211 3c54.398 2.398 91.796 11.194 124.194 23.796 69.008 27.191 122.611 80.79 149.188 148.023l0.618 1.773c12.592 32.602 21.398 69.806 23.796 124.204 2.4 54.6 3 72 3 211s-0.204 156.4-2.6 211zM930.704 241c-2.204-50-10.602-77-17.602-95-17.204-44.6-52.602-80-97.204-97.204-18-7-45.194-15.398-95-17.592-54-2.408-70.194-3-206.796-3s-153 0.592-206.806 3c-50 2.194-77 10.592-95 17.592-22.194 8.204-42.396 21.204-58.796 38.204-17 16.6-30 36.6-38.204 58.796-7 18-15.398 45.204-17.592 95-2.408 54-3 70.204-3 206.806s0.592 153 3 206.796c2.194 50 10.592 77 17.592 95 8.204 22.204 21.204 42.402 38.408 58.806 16.592 17 36.592 30 58.796 38.194 18 7 45.204 15.4 95 17.602 54 2.4 70.204 3 206.796 3 136.806 0 153-0.6 206.806-3 50-2.204 77-10.6 95-17.6 22.194-8.196 42.398-21.196 58.796-38.196 17-16.602 30-36.602 38.204-58.806 7-18 15.398-45.194 17.6-95 2.4-54 3-70.194 3-206.796s-0.6-152.602-3-206.602zM513.9 711c-145.196 0-263-117.796-263-263s117.804-263 263-263c145.2 0 263 117.796 263 263s-117.8 263-263 263zM513.9 277.4c-94.196 0-170.604 76.396-170.604 170.6s76.408 170.6 170.602 170.6c94.204 0 170.602-76.396 170.602-170.6s-76.4-170.6-170.6-170.6zM848.704 721.4c0-33.908-27.494-61.4-61.408-61.4-33.906 0-61.398 27.492-61.398 61.4 0 33.912 27.492 61.396 61.4 61.396 33.912 0 61.406-27.484 61.406-61.398z" />
<glyph unicode="&#xe90a;" glyph-name="gain-leaderboard" d="M758.43 335.514l-10.53-61.376c-0.137-0.761-0.215-1.637-0.215-2.531 0-8.268 6.703-14.971 14.971-14.971 2.547 0 4.945 0.636 7.045 1.758l-0.080-0.039 55.124 28.978 55.12-28.978c2.019-1.084 4.418-1.721 6.966-1.721 3.308 0 6.365 1.074 8.842 2.892l-0.042-0.029c3.758 2.752 6.171 7.147 6.171 12.107 0 0.896-0.079 1.773-0.23 2.625l0.013-0.090-10.526 61.378 44.594 43.47c2.79 2.722 4.52 6.519 4.52 10.719 0 7.509-5.528 13.726-12.736 14.805l-0.082 0.010-61.627 8.957-27.561 55.842c-2.501 4.984-7.571 8.345-13.426 8.345s-10.925-3.361-13.387-8.259l-0.039-0.086-27.565-55.842-61.625-8.957c-7.289-1.091-12.815-7.309-12.815-14.817 0-4.2 1.729-7.996 4.514-10.715l0.003-0.003 44.604-43.472zM795.852 384.978c4.974 0.742 9.091 3.841 11.231 8.104l0.039 0.086 17.622 35.701 17.618-35.701c2.18-4.349 6.297-7.447 11.188-8.18l0.082-0.010 39.398-5.725-28.509-27.792c-2.79-2.72-4.52-6.516-4.52-10.715 0-0.896 0.079-1.773 0.23-2.625l-0.013 0.090 6.729-39.236-35.236 18.524c-2.020 1.083-4.419 1.72-6.967 1.72s-4.947-0.636-7.047-1.759l0.080 0.039-35.238-18.524 6.731 39.234c0.137 0.762 0.216 1.639 0.216 2.534 0 4.201-1.73 7.998-4.517 10.718l-0.003 0.003-28.509 27.79 39.394 5.725zM127.646 485.517l-10.53-61.376c-0.137-0.761-0.215-1.637-0.215-2.531 0-8.268 6.703-14.971 14.971-14.971 2.547 0 4.945 0.636 7.045 1.758l-0.080-0.039 55.124 28.978 55.12-28.978c2.019-1.084 4.418-1.721 6.966-1.721 3.308 0 6.365 1.074 8.842 2.892l-0.042-0.029c3.758 2.752 6.171 7.147 6.171 12.107 0 0.896-0.079 1.773-0.23 2.625l0.013-0.090-10.526 61.378 44.594 43.47c2.79 2.722 4.52 6.519 4.52 10.719 0 7.509-5.528 13.726-12.736 14.805l-0.082 0.010-61.627 8.955-27.561 55.844c-2.501 4.984-7.571 8.345-13.426 8.345s-10.925-3.361-13.387-8.259l-0.039-0.086-27.565-55.842-61.625-8.957c-7.289-1.091-12.815-7.309-12.815-14.817 0-4.2 1.729-7.996 4.514-10.715l0.003-0.003 44.604-43.472zM165.068 534.979c4.974 0.742 9.091 3.841 11.231 8.104l0.039 0.086 17.622 35.701 17.618-35.701c2.18-4.349 6.297-7.447 11.188-8.18l0.082-0.010 39.398-5.725-28.509-27.792c-2.79-2.72-4.52-6.516-4.52-10.715 0-0.896 0.079-1.773 0.23-2.625l-0.013 0.090 6.729-39.236-35.236 18.524c-2.020 1.083-4.419 1.72-6.967 1.72s-4.947-0.636-7.047-1.759l0.080 0.039-35.238-18.524 6.731 39.234c0.137 0.762 0.216 1.638 0.216 2.533 0 4.201-1.73 7.997-4.517 10.716l-0.003 0.003-28.509 27.792 39.394 5.725zM425.801 860.683v-18.199c0-42.732 31.064-78.321 71.79-85.439v-41.993c-36.687-5.972-65.771-34.825-72.103-71.39h-20.954c-19.309 0-19.309-29.942 0-29.942h214.938c19.309 0 19.309 29.942 0 29.942h-21.566c-6.232 35.987-34.503 64.496-70.37 71.081v42.304c40.725 7.116 71.79 42.708 71.79 85.439v18.355c19.113 2.571 34.304 10.248 45.259 22.944 22.165 25.692 17.097 61.911 16.871 63.438-1.109 7.271-7.317 12.777-14.811 12.777h-205.869c-0.068 0-0.132-0.010-0.2-0.010s-0.132 0.010-0.2 0.010h-63.013c-7.494 0-13.702-5.507-14.799-12.694l-0.010-0.083c-0.226-1.529-5.294-37.745 16.871-63.438 11.166-12.947 26.73-20.686 46.377-23.101zM567.294 643.66h-111.198c6.607 24.509 29.030 42.602 55.601 42.602 26.567 0 48.99-18.091 55.597-42.602zM621.909 903.343c-5.282-6.122-12.851-10.182-22.586-12.155v38.869h32.605c-0.705-8.162-3.090-18.682-10.019-26.715zM455.743 930.058h113.637v-53.489c-0.066-0.571-0.11-1.15-0.11-1.741s0.042-1.168 0.11-1.741v-30.603c0-31.328-25.489-56.816-56.818-56.816s-56.818 25.489-56.818 56.816v87.573zM425.801 930.058v-39.077c-10.21 1.868-18.125 5.955-23.601 12.24-7.008 8.041-9.412 18.63-10.12 26.836h33.721zM1008.045-34.058h-23.121v196.166c0 21.225-17.263 38.492-38.482 38.492h-257.599c-3.681 0-7.232-0.551-10.606-1.521v316.079c0 21.225-17.259 38.492-38.474 38.492h-257.597c-21.213 0-38.472-17.267-38.472-38.492v-159.135c-2.561 0.619-5.504 0.979-8.529 0.988h-257.603c-21.219 0-38.482-17.263-38.482-38.484v-117.038c0-19.309 29.942-19.309 29.942 0v117.038c0.006 4.714 3.825 8.535 8.539 8.542h257.596c4.713-0.008 8.531-3.828 8.536-8.541v0-352.584h-274.671v161.688c0 19.309-29.942 19.309-29.942 0v-161.688h-23.121c-8.27 0-14.971-6.701-14.971-14.971s6.701-14.971 14.971-14.971h992.088c8.27 0 14.971 6.701 14.971 14.971s-6.703 14.971-14.971 14.971zM373.634-34.058v549.215c0 0 0 0 0 0 0 4.715 3.816 8.538 8.528 8.549h257.6c4.714-0.011 8.53-3.835 8.532-8.549v0-549.217h-274.661zM680.309-34.058v196.166c0.001 4.716 3.819 8.539 8.533 8.55h257.598c4.716-0.009 8.536-3.833 8.54-8.549v0-196.166h-274.671z" />
<glyph unicode="&#xe90b;" glyph-name="gain-link" d="M853.76 836.256h-592.16c-17.673 0-32-14.327-32-32s14.327-32 32-32v0h529.408l-656.608-656.64c-6.36-5.867-10.329-14.243-10.329-23.545 0-17.673 14.327-32 32-32 9.303 0 17.678 3.97 23.525 10.307l0.020 0.022 656.64 656.64v-529.44c0-17.673 14.327-32 32-32s32 14.327 32 32v0 592.128c-0.036 25.671-20.828 46.473-46.491 46.528h-0.005z" />
<glyph unicode="&#xe90c;" glyph-name="gain-logo" d="M701.419 729.911c-155.466 0-281.869-126.404-281.89-281.787h-0.062c0-52.962-43.095-96.181-96.306-96.347-52.941 0.166-96.036 44.422-96.036 96.326s41.333 94.419 92.803 96.285h51.179l139.732 185.274-187.554 0.249c-155.403 0-281.828-126.445-281.828-281.828s126.425-281.807 281.828-281.807h-0.021c3.254 0.021 6.488 0.083 9.722 0.187l368.433-0.166c155.383 0 281.807 126.425 281.807 281.807s-126.342 281.807-281.807 281.807zM701.419 199.089l-245.573 0.166-1.057-0.332c51.407 27.238 93.424 69.918 119.812 121.823 0.062 0.104 0.104 0.187 0.145 0.269l-0.891-2.052h127.565c1.161 0 2.322 0 3.462 0.041 2.094 0.062 4.166 0.166 6.219 0.332 6.633 0.497 13.121 1.513 19.423 2.985 1.617 0.373 3.234 0.788 4.83 1.244 7.628 2.073 14.966 4.851 21.931 8.229 1.866 0.912 3.71 1.866 5.535 2.84 0.912 0.497 1.824 1.016 2.736 1.555 2.487 1.43 4.892 2.923 7.276 4.519 3.545 2.405 6.965 4.954 10.261 7.649 2.197 1.803 4.332 3.69 6.405 5.638 1.036 0.974 2.052 1.949 3.047 2.964 0.746 0.726 1.472 1.472 2.156 2.218 2.135 2.239 4.166 4.54 6.156 6.923 0 0 0.021 0.021 0.021 0.041 1.285 1.575 2.57 3.192 3.793 4.83 0.643 0.829 1.244 1.679 1.866 2.55 1.182 1.679 2.322 3.379 3.441 5.12 8.582 13.37 14.759 28.419 17.93 44.546 0.207 1.016 0.373 2.011 0.56 3.026 1.223 7.131 1.866 14.427 1.866 21.89 0 70.934-57.73 128.891-129.14 129.14-70.913-0.249-128.726-58.206-128.726-129.14h-0.187c0-137.307-111.707-249.014-249.014-249.014s-249.014 111.707-249.014 249.014 111.707 249.014 248.994 249.014l121.823-0.166-90.336-119.771h-15.070v0.062h-16.417c-71.1-0.124-128.933-58.186-128.933-129.14s57.771-128.891 129.202-129.119c70.996 0.228 128.726 58.144 128.746 129.119h0.062c0 137.266 111.749 249.014 249.097 249.014s249.014-111.666 249.014-249.014-111.666-249.014-249.014-249.014zM797.538 448.104c0-15.754-3.793-30.616-10.551-43.758v0c-0.705-1.41-1.43-2.757-2.218-4.104-0.394-0.684-0.788-1.347-1.182-2.011-0.808-1.327-1.638-2.612-2.508-3.897-3.462-5.12-7.4-9.908-11.753-14.261-1.638-1.638-3.317-3.213-5.058-4.726-1.161-1.036-2.342-2.011-3.545-2.943v0c-1.202-0.974-2.425-1.907-3.69-2.798h-0.021c-1.244-0.891-2.508-1.762-3.814-2.591h-0.021c-1.285-0.85-2.591-1.658-3.938-2.425s-2.715-1.513-4.104-2.218c-1.368-0.726-2.757-1.41-4.166-2.052-12.064-5.472-25.455-8.54-39.53-8.561h-113.303c10.966 30.077 16.956 62.518 16.956 96.347h0.187c0 52.9 43.137 96.181 96.264 96.347 52.713-0.166 95.622-42.909 95.995-95.601 0.021-0.249 0.021-0.497 0.021-0.746z" />
<glyph unicode="&#xe90d;" glyph-name="gain-rocket" d="M706.276 319.892c33.924-40.198 51.682-84.118 50.949-134.644-1.011-69.612-36.772-122.015-87.020-165.042-58.558-50.136-129.327-71.284-205.065-77.223-16.588-0.951-33.215-1.004-49.809-0.165-7.168 0.139-14.27 1.401-21.047 3.746-27.157 9.837-31.285 29.954-9.748 48.881 21.143 18.571 43.959 35.305 64.326 54.655 15.607 14.937 29.741 31.348 42.207 48.993 13.199 18.577 14.361 40.009 6.179 64.71-13.043-6.071-25.535-10.907-37.017-17.487-24.074-13.794-37.654-13.22-58.307 4.909-20.067 17.619-39.787 35.635-59.751 53.374-2.97 2.319-6.075 4.459-9.297 6.408-12.11-11.191-23.367-22.356-35.434-32.557-15.991-13.523-31.852-13.874-42.228-1.903-9.726 11.205-8.126 26.016 5.927 40.418 9.972 10.227 21.368 19.073 29.788 26.492-22.643 27.635-45.464 50.295-61.871 76.881-19.174 31.089 4.523 58.801 19.33 89.219-28.267 1.774-51.512-3.404-70.197-17.734-17.831-14.458-33.911-30.95-47.913-49.141-13.563-16.737-24.113-35.907-36.154-53.891-11.352-16.959-22.981-34.783-46.882-32.319-16.546 1.704-39.619 31.513-41.149 53.915-3.469 51.074 3.035 100.779 26.884 146.949 43.69 84.553 112.517 139.535 202.177 168.951 37.568 12.323 75.413 8.399 113.731-3.274 2.125 2.446 4.618 4.882 6.612 7.671 103.476 144.612 244.489 236.407 411.491 290.919 56.875 18.563 114.417 35.461 175.045 37.008 15.142 0.386 30.297 1.544 45.433 1.37 19.74-0.221 29.584-7.224 28.784-26.507-1.024-37.315-4.512-74.522-10.458-111.376-24.365-138.593-91.017-257.458-177.588-365.868-33.693-42.199-71.634-81.020-107.685-121.341-4.261-4.752-8.793-9.271-14.244-14.999zM369.408 255.567c22.547-17.917 38.968-31.975 56.62-44.23 3-1.414 6.277-2.134 9.594-2.121 3.316 0.020 6.586 0.773 9.571 2.22 27.981 14.831 56.595 29.022 82.641 46.86 92.77 63.53 176.697 137.344 247.247 225.157 38.278 47.64 73.299 97.887 110.513 147.925l-215.635 200.248c-7.12-3.329-14.054-7.036-20.776-11.105-42.060-27.912-84.94-54.725-125.556-84.609-45.528-33.492-84.055-74.42-118.448-119.533-57.041-74.81-90.624-162.169-132.831-244.901-4.197-8.239-1.843-24.833 4.107-32.2 15.484-19.179 34.658-35.383 55.462-55.819 32.52 33.709 61.138 65.211 91.855 94.553 17.696 15.887 36.67 30.291 56.729 43.066 10.545 7.163 24.009 9.604 33.657-1.397 9.778-11.152 1.357-22.074-5.516-31.037-8.124-10.124-16.926-19.686-26.346-28.618-19.512-19.287-39.068-38.518-59.17-57.172-16.863-15.676-34.528-30.462-53.719-47.288zM975.383 917.792c-92.266-0.186-173.703-34.489-256.733-62.405l-1.48-5.745 190.966-160.99c32.722 51.859 57.813 137.358 67.247 229.139zM518.413 24.262c77.693 14.633 137.887 54.041 171.71 126.263 22.548 48.201 6.798 93.184-19.78 135.954-44.735-34.149-87.523-66.824-130.302-99.487 33.696-59.465 16.438-111.834-21.628-162.73zM325.024 586.772c-111.082 18.212-264.634-131.99-254.675-235.106 45.36 71.632 103.567 114.789 191.16 99.262l63.514 135.844zM99.791 31.272c3.291 5.952 6.825 16.787 13.876 24.318 26.589 28.388 54.153 55.871 81.735 83.307 8.1 8.060 18.345 13.14 28.887 4.539 11.117-9.071 6.252-19.912-0.316-28.883-22.548-30.786-45.147-61.572-68.974-91.361-7.087-8.139-16.095-14.382-26.207-18.155-15.011-5.919-29.524 5.985-29 26.234zM346.757 141.659c15.987-0.436 27.608-14.851 20.497-26.016-18.111-28.104-38.007-55.019-59.564-80.572-7.723-9.249-21.589-7.941-31.398 0.912-4.484 3.792-7.418 9.104-8.244 14.924-0.826 5.814 0.514 11.733 3.765 16.628 5.885 9.797 12.882 18.881 20.853 27.080 11.807 12.572 24.282 24.563 37.108 36.084 5.307 4.175 10.993 7.842 16.985 10.96zM203.929 263.621c-3.052-6.745-6.657-13.226-10.779-19.37-20.134-25.131-40.577-50.011-61.329-74.633-3.9-4.202-8.436-7.763-13.442-10.544-10.363-6.375-20.9-6.362-29.255 3.072-8.633 9.745-6.717 20.566 1.938 28.949 28.332 27.463 56.989 54.609 86.214 81.114 3.821 3.468 11.955 4.030 17.544 2.999 3.356-0.621 5.663-6.937 9.11-11.588zM660.428 723.929c28.156 0.386 49.865-11.13 71.653-29.276 22.587-18.81 39.46-38.873 47.798-66.914 19.245-64.859-18.835-112.604-80.585-121.337-50.044-7.076-92.494 13.533-123.371 52.71-26.45 33.57-27.165 72.633-8.82 110.171 18.498 37.875 51.82 54.244 93.325 54.647zM600.994 620.015c7.232-12.479 12.423-28.388 23.198-38.114 11.161-10.073 27.39-15.063 42.030-20.631 19.231-7.319 35.88 0.433 48.947 14.039 12.651 13.16 13.12 29.689 6.937 46.526-9.738 26.545-32.451 39.867-55.263 51.882-20.485 10.788-39.923 4.336-51.6-15.866-5.954-10.281-8.616-22.465-14.248-37.836z" />
<glyph unicode="&#xe90e;" glyph-name="gain-server" d="M789.333 576c35.669 0 64.299 28.672 64.299 64v42.667c0 35.328-28.629 64-64 64h-554.965c-35.328 0-64-28.672-64-64v-42.667c0-35.328 28.672-64 64-64h554.667zM128 256c0 58.88 47.787 106.667 106.667 106.667h554.965c58.923 0 106.368-47.787 106.368-106.667v-42.667c0-58.88-47.445-106.667-106.368-106.667h-554.965c-58.88 0-106.667 47.787-106.667 106.667v42.667zM170.667 554.667c-25.899 19.456-42.667 50.432-42.667 85.333v42.667c0 58.88 47.787 106.667 106.667 106.667h554.965c58.923 0 106.368-47.787 106.368-106.667v-42.667c0-34.901-16.768-65.877-42.667-85.333 25.899-19.456 42.667-50.432 42.667-85.333v-42.667c0-58.88-47.445-106.667-106.368-106.667-12.075 0-21.632 9.557-21.632 21.333s9.557 21.333 21.333 21.333c35.669 0 64.299 28.672 64.299 64v42.667c0 35.328-28.629 64-64 64h-554.965c-35.328 0-64-28.672-64-64v-42.667c0-35.328 28.672-64 64-64 11.776 0 21.333-9.557 21.333-21.333s-9.557-21.333-21.333-21.333c-58.88 0-106.667 47.787-106.667 106.667v42.667c0 34.901 16.768 65.877 42.667 85.333zM170.667 256v-42.667c0-35.328 28.672-64 64-64h554.965c35.669 0 64.299 28.672 64.299 64v42.667c0 35.328-28.629 64-64 64h-555.264c-35.328 0-64-28.672-64-64zM234.667 618.667c-11.776 0-21.333 9.557-21.333 21.333s9.557 21.333 21.333 21.333h85.333c11.776 0 21.333-9.557 21.333-21.333s-9.557-21.333-21.333-21.333h-85.333zM234.667 405.333c-11.776 0-21.333 9.557-21.333 21.333s9.557 21.333 21.333 21.333h85.333c11.776 0 21.333-9.557 21.333-21.333s-9.557-21.333-21.333-21.333h-85.333zM234.667 192c-11.776 0-21.333 9.557-21.333 21.333s9.557 21.333 21.333 21.333h85.333c11.776 0 21.333-9.557 21.333-21.333s-9.557-21.333-21.333-21.333h-85.333z" />
<glyph unicode="&#xe90f;" glyph-name="gain-sol" d="M302.25 737.167c3.956 5.935 10.617 9.5 17.75 9.5h469.333c7.868 0 15.095-4.33 18.807-11.267s3.307-15.354-1.058-21.9l-85.333-128c-3.955-5.935-10.615-9.5-17.749-9.5h-469.333c-7.868 0-15.097 4.33-18.809 11.267s-3.305 15.354 1.059 21.9l85.333 128zM331.417 704l-56.889-85.333h418.054l56.887 85.333h-418.053zM302.25 310.502c3.956 5.931 10.617 9.498 17.75 9.498h469.333c7.868 0 15.095-4.331 18.807-11.268s3.307-15.351-1.058-21.901l-85.333-128c-3.955-5.931-10.615-9.498-17.749-9.498h-469.333c-7.868 0-15.097 4.331-18.809 11.268-3.712 6.933-3.305 15.351 1.059 21.901l85.333 128zM331.417 277.333l-56.889-85.333h418.054l56.887 85.333h-418.053zM302.25 372.164c3.956-5.931 10.617-9.498 17.75-9.498h469.333c7.868 0 15.095 4.331 18.807 11.268s3.307 15.351-1.058 21.901l-85.333 128c-3.955 5.931-10.615 9.498-17.749 9.498h-469.333c-7.868 0-15.097-4.331-18.809-11.268s-3.305-15.351 1.059-21.901l85.333-128zM331.417 405.333l-56.889 85.333h418.054l56.887-85.333h-418.053z" />
<glyph unicode="&#xe910;" glyph-name="gain-telegram" d="M401.792 312.277l-16.939-238.251c24.235 0 34.731 10.411 47.317 22.912l113.621 108.587 235.435-172.416c43.179-24.064 73.6-11.392 85.248 39.723l154.539 724.139 0.043 0.043c13.696 63.829-23.083 88.789-65.152 73.131l-908.373-347.776c-61.995-24.064-61.056-58.624-10.539-74.283l232.235-72.235 539.435 337.536c25.387 16.811 48.469 7.509 29.483-9.301z" />
<glyph unicode="&#xe911;" glyph-name="gain-usdc" d="M512 960c282.784 0 512-229.216 512-512s-229.216-512-512-512-512 229.216-512 512 229.216 512 512 512zM619.264 782.080c-7.808 3.84-15.616 0-17.536-7.776-1.952-1.952-1.952-3.904-1.952-7.776v-27.2l0.32-3.328c1.749-6.741 5.808-12.34 11.263-16.034l0.097-0.062c152.128-54.4 230.144-223.36 173.568-372.896-29.248-81.6-93.6-143.712-173.568-172.864-7.808-3.872-11.68-9.696-11.68-19.424v-27.2l0.16-2.816c0.647-6.35 5.337-11.442 11.427-12.688l0.093-0.016c1.952 0 5.856 0 7.808 1.92 142.984 45.661 244.714 177.345 244.714 332.79 0 37.925-6.056 74.436-17.253 108.619l0.699-2.465c-35.072 110.72-120.896 194.24-228.16 229.184zM412.544 784c-1.952 0-5.856 0-7.808-1.92-142.984-45.661-244.714-177.345-244.714-332.79 0-37.925 6.056-74.436 17.253-108.619l-0.699 2.465c35.072-108.8 118.944-192.32 228.16-227.264 7.808-3.872 15.616 0 17.536 7.776 1.952 1.92 1.952 3.904 1.952 7.776v27.2l-0.32 2.56c-1.344 5.408-6.368 11.584-11.36 14.912-152.128 54.4-230.144 223.36-173.568 372.896 29.248 81.6 93.6 143.712 173.568 172.864 7.808 3.872 11.68 9.696 11.68 19.424v27.2l-0.16 2.816c-0.647 6.35-5.337 11.442-11.427 12.688l-0.093 0.016zM525.664 683.008h-29.28l-2.816-0.256c-6.4-1.28-11.072-6.784-12.8-15.296v-44.672l-6.624-1.024c-54.656-9.728-88.896-47.456-88.896-94.144 0-64.064 38.976-89.312 120.896-99.040 54.624-9.696 72.16-21.376 72.16-52.448 0-31.040-27.296-52.416-64.352-52.416-50.72 0-68.256 21.344-74.112 50.496-1.92 7.744-7.808 11.648-13.664 11.648h-33.152l-2.528-0.224c-6.336-1.052-11.108-6.492-11.108-13.047 0-0.116 0.001-0.231 0.004-0.346v0.017-1.92l1.056-5.76c9.28-45.568 40.512-78.176 102.304-87.488v-46.624l0.256-2.816c1.28-6.336 6.816-11.008 15.36-12.704h29.248l2.816 0.256c6.4 1.28 11.072 6.784 12.8 15.264v46.656l6.624 1.28c54.816 11.584 90.88 51.232 90.88 101.664 0 67.968-40.96 91.264-122.88 100.992-58.528 7.776-70.208 23.296-70.208 50.496s19.52 44.672 58.496 44.672c35.104 0 54.624-11.648 64.352-40.8 2.079-5.662 7.4-9.64 13.657-9.696h31.207l2.528 0.192c6.352 1.038 11.141 6.486 11.141 13.052 0 0.125-0.002 0.25-0.005 0.374v-0.018 1.92l-1.184 5.536c-10.009 40.432-44.338 70.536-86.234 74.088l-0.358 0.024v46.56l-0.256 2.816c-1.28 6.368-6.816 11.040-15.36 12.736z" />
<glyph unicode="&#xe912;" glyph-name="gain-usdt" d="M574.948 506.974v-76.668c-20.157-1.011-41.24-1.567-62.945-1.567-23.584 0-46.41 0.646-68.125 1.856v61.211h-0.014v14.933c-120.463-5.798-209.639-26.628-209.639-51.44 0-29.31 124.364-53.052 277.781-53.052 153.408 0 277.781 23.742 277.781 53.052-0.005 25.178-91.758 46.234-214.841 51.675zM512.002 960.005c-282.766 0-512.002-229.222-512.002-511.998 0-282.762 229.236-512.007 512.002-512.007s511.998 229.245 511.998 512.007c0 282.775-229.236 511.998-511.998 511.998zM574.939 361.080v-225.845h-131.079v226.152c-140.318 8.119-245.284 40.756-245.284 79.806 0 39.041 104.966 71.674 245.284 79.806v63.284h-178.446v131.074h487.989v-131.074h-178.464l0.009-62.981c142.932-7.604 250.49-40.589 250.49-80.109-0.005-39.528-107.558-72.518-250.499-80.113z" />
<glyph unicode="&#xe913;" glyph-name="gain-x" d="M607.324 526.406l373.010 433.594h-88.391l-323.885-376.484-258.686 376.484h-298.363l391.184-569.31-391.184-454.69h88.396l342.031 397.58 273.191-397.58h298.363l-405.688 590.406zM486.253 385.674l-354.997 507.782h135.772l624.957-893.939h-135.772l-269.96 386.135z" />
<glyph unicode="&#xe914;" glyph-name="gain-youtube" d="M984.087 746.463c-36.963 43.94-105.208 61.863-235.54 61.863h-473.105c-133.315 0-202.716-19.079-239.54-65.86-35.903-45.611-35.903-112.815-35.903-205.827v-177.281c0-180.194 42.598-271.684 275.443-271.684h473.108c113.023 0 175.652 15.816 216.17 54.592 41.551 39.764 59.28 104.689 59.28 217.091v177.281c0 98.089-2.778 165.69-39.913 209.824zM657.411 423.523l-214.835-112.28c-4.441-2.371-9.713-3.764-15.31-3.764-18.238 0-33.022 14.785-33.022 33.022 0 0.006 0 0.013 0 0.019v-0.001 223.84c0.001 18.242 14.79 33.031 33.032 33.031 5.563 0 10.805-1.375 15.405-3.804l-0.18 0.087 214.835-111.557c10.665-5.623 17.811-16.635 17.811-29.316 0-12.651-7.112-23.641-17.556-29.19l-0.179-0.087z" />
<glyph unicode="&#xe915;" glyph-name="gain-zealy" d="M888.491 433.254c16.521 16.179 33.178 32.7 49.493 49.357 0 19.456 0.137 203.776 0.137 203.776l-175.514 177.015c-212.514-71.748-439.228-88.132-661.845-76.322 0 0-0.137-25.327-0.137-246.374l62.191-62.601c-28.672-18.637-57.549-36.864-86.699-54.75l-0.137-203.503 175.65-177.22c235.657-15.497 476.433 1.775 700.962 79.94v246.17l-64.102 64.649zM884.668 169.267c-188.553-54.955-374.784-69.359-565.111-61.713v98.714c109.5 70.178 219.068 147.729 328.431 236.612-101.308-13.175-202.411-16.521-303.923-13.517v109.158c176.742-5.188 350.345 9.079 525.79 58.368l0.137-0.137v-98.714c-109.5-105.267-219.068-197.086-328.431-279.074 114.483 7.782 228.693 26.078 343.177 59.46v-109.158z" />
</font>
</defs>
</svg>
